# E X T R E M L Y M T O R R E N T S / D O W N L O A D


Welcome!

https://extremlymtorrents.ws/index.php

Tom & Jerry Around The World 2012 DVDRip Xvid [Extremlym]

View previous topic View next topic Go down

Tom & Jerry Around The World 2012 DVDRip Xvid [Extremlym]

Post  Extremlym on Mon Jun 11, 2012 6:00 pm

Tom & Jerry Around The World 2012 DVDRip Xvid [Extremlym]


Torrent Info : Movies/SD
Donate!
NOTES

NOTES

Encoded By .......:UnKnOwN
Runtime ..........:0:52
IMDb URL .........:http://www.tomandjerryonline.com/
Language .........:English
File Size ........:700mb
Release Date ......... 2012
Source ......... Your G/F
File Type ......... Single AVI
PS3 Compatible ....... Go For It
Genre ......... Comedy/Kids

Video
ID : 0
Format : MPEG-4 Visual
Format profile : Advanced Simple@L5
Format settings, BVOP : Yes
Format settings, QPel : No
Format settings, GMC : No warppoints
Format settings, Matrix : Custom
Codec ID : XVID
Codec ID/Hint : XviD
Duration : 0h 52mn
Bit rate : 1691kbps
Width : 680pixels
Height : 400pixels
Display aspect ratio : 4:3
Frame rate : 23.997fps
Color space : YUV
Chroma subsampling : 4:2:0
Bit depth : 8 bits
Scan type : Progressive
Bits/(Pixel*Frame) : 0.234
Stream size : 892 MiB (86%)
Writing library : XviD 1.2.1 (UTC 2008-12-04)

Audio
ID : 1
Format : MP3
Format/Info : MPEG
Mode extension : CM (complete main)
Codec ID : 2000
Duration : 0h 52mn
Bit rate mode : Constant
Bit rate : 128kbps
Channel(s) : 2channels
Channel positions : Front: L R
Sampling rate : 48.0 KHz
Bit depth : 16 bits
Stream size : 302 MiB
Alignment : Aligned on interleaves
Interleave, duration : 42 ms (1.00 video frame)
Interleave, preload duration : 512 ms

SYPNOSIS
Tom and Jerry travel the globe by land, sea, and air in this collection

RELEASE INFO
Enjoy

Download Torrent: http://kat.ph/tom-jerry-around-the-world-2012-dvdrip-xvid-extremlym-t6443625.html
avatar
Extremlym
Admin

Mesaje : 1150
Puncte : 2703258
Reputatie : 3
Data de inscriere : 2010-06-01
Varsta : 32
Localizare : Bucuresti

http://extremlymtorrent.roll.tv

Back to top Go down

View previous topic View next topic Back to top

- Similar topics

 
Permissions in this forum:
You cannot reply to topics in this forum