# E X T R E M L Y M T O R R E N T S / D O W N L O A D


Welcome!

https://extremlymtorrents.ws/index.php

Madagascar 3 Europe's Most Wanted.2012.CAMRip2.XviD-Extremlym

View previous topic View next topic Go down

Madagascar 3 Europe's Most Wanted.2012.CAMRip2.XviD-Extremlym

Post  Extremlym on Mon Jun 11, 2012 5:57 pm

Madagascar 3 Europe's Most Wanted.2012.CAMRip2.XviD-Extremlym


Format : AVI
Format/Info : Audio Video Interleave
File size : 1.40 GiB
Duration : 1h 21mn
Overall bit rate : 2 473 Kbps
Writing application : VirtualDubMod 1.5.10.2 (build 2540/release)
Writing library : VirtualDubMod build 2540/release

Video
ID : 0
Format : MPEG-4 Visual
Format profile : Advanced Simple@L5
Format settings, BVOP : 2
Format settings, QPel : No
Format settings, GMC : No warppoints
Format settings, Matrix : Default (H.263)
Muxing mode : Packed bitstream
Codec ID : XVID
Codec ID/Hint : XviD
Duration : 1h 21mn
Bit rate : 2 335 Kbps
Width : 624 pixels
Height : 346 pixels
Display aspect ratio : 16:9
Frame rate : 25.000 fps
Color space : YUV
Chroma subsampling : 4:2:0
Bit depth : 8 bits
Scan type : Progressive
Compression mode : Lossy
Bits/(Pixel*Frame) : 0.433
Stream size : 1.32 GiB (94%)
Writing library : XviD 64

Audio
ID : 1
Format : MPEG Audio
Format version : Version 1
Format profile : Layer 3
Mode : Joint stereo
Mode extension : MS Stereo
Codec ID : 55
Codec ID/Hint : MP3
Duration : 1h 21mn
Bit rate mode : Constant
Bit rate : 128 Kbps
Channel(s) : 2 channels
Sampling rate : 44.1 KHz
Compression mode : Lossy
Stream size : 74.3 MiB (5%)
Alignment : Split accross interleaves
Interleave, duration : 40 ms (1.00 video frame)
Interleave, preload duration : 500 ms
Writing library : LAME3.98r
Encoding settings : -m j -V 4 -q 3 -lowpass 17 -b 128


http://www.imdb.com/title/tt1277953/


Ratings: 6.8/10 from 1,112 users Metascore: 59/100
Reviews: 17 user | 11 critic | 23 from Metacritic.com

Alex, Marty, Gloria and Melman are still fighting to get home to their beloved Big Apple. Their journey takes them through Europe where they find the perfect cover: a traveling circus, which they reinvent - Madagascar style.
Directors:
Eric Darnell, Tom McGrath, and 1 more credit �
Writers:
Eric Darnell (screenplay), Noah Baumbach (screenplay)
Stars:
Ben Stiller, Jada Pinkett Smith and Chris Rock


Source Used


Video.....................Madagaskar.3.2012.D.TS.ELEKTRI4KA.....SORS (LUM1X)......Thanks


Audio....................26k...............................................Thanks

This has vid missing in a couple of places,around 6 mins according to 26k so yep this be the same........Colour changes throughout,intense then less so and a few other flaws but for 1st cam not bad


Done what i do with it so check out sample provided ..........No no no i never reencoded 26k used the russian cam then muxed 26k audio(thanks guys) ...If you say you do the work DO IT ......bitch over

V1 tag as already v2 using the spanish source which yes is better

Enjoy

http://img850.imageshack.us/img850/4558/vlcsnap2012061009h12m06.png
http://img641.imageshack.us/img641/2576/vlcsnap2012061009h10m51.png
http://img21.imageshack.us/img21/8412/vlcsnap2012061009h42m46.png
http://img710.imageshack.us/img710/9527/vlcsnap2012061008h41m01.png

Download 1: http://kat.ph/madagascar-3-europes-most-wanted-2012-cam-xvid-extremlym-t6443609.html
Download 2: http://kat.ph/madagascar-3-europe-s-most-wanted-2012-camrip2-xvid-extremlym-t6443616.html
avatar
Extremlym
Admin

Mesaje : 1150
Puncte : 2703258
Reputatie : 3
Data de inscriere : 2010-06-01
Varsta : 32
Localizare : Bucuresti

http://extremlymtorrent.roll.tv

Back to top Go down

View previous topic View next topic Back to top

- Similar topics

 
Permissions in this forum:
You cannot reply to topics in this forum